Index Of Flac Beatles

Radiohead – A Moon Shaped Pool (2016) [. Best available sources, excellent quality Available in both Lossless (FLAC) and mp3 (320 kbps) versions. com is a free search engine: flac, mp3, ogg and mp4. Under Windows at compact disk *. The album topped the Billboard 200 album chart and was certified 8x 05. THE BEATLES recorded an enormous amount of songs over the years, and John Lennon went on to record even more after the band had split up - but one of his "favourite" songs was cut from his iconic Rock 'n' Roll album in 1975. This page includes Lizard's: cover picture, songs / tracks list, members/musicians and line-up, different releases details, free MP3 download (stream), buy online links: amazon, ratings and detailled reviews by our experts, collaborators and members/5. Год: 1963-2013 Жанр: Classic Rock. You can post now and register later. flac files, but iTunes does not let you sync these to your iPod/iPhone. Joy Division - Love Will Tear Us Apart 8D Audio. 17 Black Diamond. 5 All I've Got To Do The Beatles Symphonic Orchestra 2:09. È una delle band più importanti e tra le maggiori espressioni della. Otherwise, the MP3 format with up to 320 kbps of bit rate is eClassical. of "Foo Fighters" - intitle:index. Детали релиза : The Beatles (1963-1979) [Vinyl] [FLAC (image +. 26/FLAC + MP3/RAR). If the mode is set to one of the Rename or Copy options, then the files will be moved or copied to the new destination, while preserving the existing file and folder structure. Tracklist & Download Links. What would be the disadvantages of converting these stereo tracks into mono rather than buying the mono remasters? Would there be a difference at all? Stereo is annoying when listening in headphones. flac download 15. You can post now and register later. Renauld & The Smooth Jazz Quintet - Hey Jude [03:34]. If you're looking to buy lossless music in FLAC format, from indie to classical to jazz, here are our favorite sites. [Lưu Trữ] [lossless]Beatles, The - Abbey Road (MFSL Ebbetts) Quán Nước Vỉa Hè. You can download The Beatles - Discography (1963-2015) for free on our site High Quality Save Audio in 1 Click Wide Choice of Songs and AlbumsContainer: FLAC (image +. Under Windows at compact disk *. The Beatles 'Magical Mystical Boy' (2CD) The Alternate Magical Mystery Tour (2001 Silent Sea : SS067-68) Studio Soundboard Recordings Excellent Sound Quality. exe (User Defined Encoder) 32 kBit/s Additional command line. com! Check out our Gage Blog for all kinds of Metrology tips. The Countersink Gage vs Chamfer Gage. org - 'a non-profit corporation dedicated to protecting the foundations of. Formed around the nucleus of Lennon and McCartney, who first performed together in Liverpool in 1957, the group grew out of a shared enthusiasm for American rock. Flac download The Beatles - Revolver (1993, 1966) (24bit Hi-Res) FLAC (image+. Beatles In Mono Flac. The Beatles - The U. Conversion of FLAC audio files to MP3 audio files by using this downloadable Windows 10 app has a straightforward user interface. 1 Todo Cambia 2 Un Vestido y un Amor 3 Yo Vengo a Olfrecer Mi Corazón 4 La Maza 5 Gracias a la Vida 6 Y Dale Alegría a Mi Corazón 7 Los Mareados 8 Sólo le Pido a Dios 9 Razón de Vivir 10 El Tiempo Es Veloz 11 Mon Amour 12 La Estrella Azul 13 Inconciente Colectivo 14 Luna. Made in RU. FlacMusicFinder. The website features a trade center to help you grow your bootleg collection. The Beatles — I'll Follow The Sun (Beatles For Sale 1987). AR Rahman Lossless FLAC songs [1411 Kbps] ripped from Audio CD. The Beatles - The Singles Collection [24-bit Hi-Res] (1982/2019) FLAC. THE BEATLES recorded an enormous amount of songs over the years, and John Lennon went on to record even more after the band had split up - but one of his "favourite" songs was cut from his iconic Rock 'n' Roll album in 1975. Unbelievably good, and I am not prone to audio hyperbole. Téléchargement mp3 gratuit Index. With the release of The Beatles Rock Band sparking renewed interest, this is every single and every album - from Love Me Do to Real Love, and everything in between. Soul Flac Soul Flac. com is the best free search engine for flac files. wav" WAVE TRACK 02 AUDIO PERFORMER "The Beatles" TITLE "Dig a Pony" INDEX 01 02:30:52FILE "03 For You Blue. Russell Malone - All About Melody (2016) [24bit FLAC] Search for: Free Movies Download. 4 GB 2018-11-10 150 48 The Beatles – The Beatles (White Album / Super Deluxe) [320 KBPS] [pradyutvam] 1337x. The Beatles - The Beatles (White Album - Super Deluxe) (1968/2018) [24-96 FLAC ,Hi-Res] 1337x. Following the September 9 (9-9-09) debut of The Beatles’ digitally re-mastered catalogue on CD, comes this exquisitely crafted, apple-shaped USB drive. Watch and download free files flac. As of today we have 85,791,558 eBooks for you to download for free. Conversion of FLAC audio files to MP3 audio files by using this downloadable Windows 10 app has a straightforward user interface. Radio 2's Beatles weekend where they featured The Beatles top selling albums and singles I've updated the stats pages: See The Beatles U. Disc 2: Yellow Submarine Eleanor. Year: 1969 Remastered: 2009 Country: England FLAC Format: 16 Bits / 44. 0 (24/96) capture > IZotope RX + Ozone 5 > iZotope RX MBIT+ resample 16/44. Introducing the Beatles above spindle hole, The Beatles below the spindle hole. 10 Because Tony Osborne 2:33. Year Of Release: 2012 Genre: Pop, Eurodance Format: Flac, Tracks +. September 2016 EAC extraction logfile from 8. Any Pages 1-24 25-50 51-100 100+. FLAC is a free lossless compressed audio format which supports streaming and archival. What would be the disadvantages of converting these stereo tracks into mono rather than buying the mono remasters? Would there be a difference at all? Stereo is annoying when listening in headphones. Download samples of High-Resolution music files. Its the stereo Remaster. Поделиться The Beatles — Girl (Rubber Soul 1965). Index of flac beatles Index of flac beatles. flac files, but iTunes does not let you sync these to your iPod/iPhone. i just didnt want to buy one of these and not have it work. Third Christmas Record - 1965. [Album] Mary's Blood - Re>Animator (2020. Johann Sebastian Bach - The Art of Fugue, BWV1080 - Rachel Podger, Brecon Baroque (2016) [24bit FLAC]. With the release of The Beatles Rock Band sparking renewed interest, this is every single and every album - from Love Me Do to Real Love, and everything in between. Gary Clark, Jr. Download or listen to free music and audio This library contains recordings ranging from alternative news programming, to Grateful Dead concerts Download free music from moe. While the Beatles flew off to meet the Maharishi, Fay fell under the spell of a 19th century compendium of commentaries on the Biblical books of Daniel and Revelations, which would inspire his second album, Time of the Last Persecution. With that said, let's continue on! The Beatles' fourth album, Beatles for Sale, was released in the UK on December 4th, 1964, and reached the top spot on December 19th. Performer: The Beatles Album: Collection Vol. Download lossless music Beatles,_The in popular formats: FLAC, MP3, M4A. Quality: FLAC 16 bit / 44. Beatles - The Beatles 1967-1970 (1973) Japan SHM-CD UICY-76984/5 [2014] Tamanho (Size): 664 MB Formato (File): FLAC (from SHM) About SHM Download: Mega Disc 1 01. 1 Surround Mix 96 kHz 24 Bit. August 2018. AR Rahman Lossless FLAC songs [1411 Kbps] ripped from Audio CD. 00b: October 5 2013 at 23:00: Darude - Before The Storm: 0. 4 - Revolver / Let It Be Label: Parlophone. Lineage: CD>EAC>FLAC(level 8) Disc One 73:44 01 Tennessee 2:20 02 House Of The Rising Sun 3:02 03 Commonwealth Song 4:26 04 Get Off White Power 2:46 05 Winston, Richard, And John 3:19 06 Yakety Yak > Hi Ho Silver 3:07 07 For You Blue 2:11. Customers and visitors can download classical music in high quality FLAC or MP3 and find out more about classical music. [02:05] 12. Link to your collections, sales and even external links. 49 MB 02 Lee Morgan - Yesterday. Bands The Beatles. 60 MB The Beatles - 1/101 - Love Me Do. Детали релиза : The Beatles (1963-1979) [Vinyl] [FLAC (image +. MC19 was stable for two days. 13 God Of Thunder. This is the most covered pop song of all time, with over 3,000 versions recorded according to The Guinness Book Of World Records. Made in US. The Beatles – Please Please Me (1963/2009) FLAC (tracks) 24 bit/44,1 kHz | Time – 32:28 minutes | 429 MB. Class Index. I don't want to convert them to mp3 cause the quality goes abit ****ter, does anyone know if it's possible to burn them on cd and put it through iTunes like any. Chicane - Far From The Maddening Crowds 2007 [FLAC]-JDR: 0. 81 MB Beatles, The - 1962-1966 (US Stereo Ebbetts)/CD1/Beatles, The - 1962-1966 CD 1 of 2 (US Stereo Ebbetts) - 02. The Beatles - Discography 1963-2017 [FLAC] » audio music lossless. September 2016 EAC extraction logfile from 8. Features of High-Resolution Audio. 1 KHz (CD On Calf Music you can download metal, rock and alternative music. The Beatles — I'll Follow The Sun (Beatles For Sale 1987). Post at 2016-07-03 04:26 (about 4 years) in Music [Hi-Res] The Beatles - Stereo USB Box Set (flac. Producer Chris Thomas and engineer Ken Scott have been speaking about the double LP, which has the formal eponymous title of The Beatles. Artist: Various Artists Title: King Jammys Dancehall, Vol. 1 {japanesse Album} [flac] (2004) '4. [Flac] Blues Rock, Hard Rock + Cue + Cover - Progetto TNT Blues DISCOGRAFIA 1964-2012::::: Bio & Info :::::I Rolling Stones sono un gruppo musicale rock britannico, composto da Mick Jagger (voce, armonica), Keith Richards (chitarre, voce), Ronnie Wood (chitarre, cori) e Charlie Watts (batteria, percussioni). The album showed the group begin to. Index of queen flac Index of queen flac. cue / 100% log Bitrate: lossless Total Size: 1. Today we worked in his huge garden, loading a bunch of tree stumps on a truck with a tractor, then went for a swim in the beautiful Uncanoonuc Lake: Back in February I mentioned using Songbird to play music on the Mac, extracting M3U playlists from it, and determining the. 42 The Oscar Peterson Trio - Like Someone In Love [Flac][TntVillage] 226. Beatles Mono Flac. Год: 1963-2013 Жанр: Classic Rock. com is a completely virtual record label and a secure online store open 7 days a week, 365 days a year. Used with kind permission. A column with no settings can be used as a spacer. 几秒钟内将FLAC转换为MP3文件的最佳方法。 100%免费、安全并便于操作! Convertio — 解决任何文件任何问题的先进在线工具。. The Beatles - The Beatles 1962-1966 (The Red Album) - Remastered + [FLAC] The Beatles - The Beatles (White Album - Super Deluxe) + [FLAC] The Beatles-Sgt. Another Girl. wav" WAVE INDEX 01 00:00:00 TRACK 05 AUDIO TITLE "Can't Buy Me Love" PERFORMER "The Beatles" INDEX 00 02:25:46 FILE "05 Can't Buy. In the 20 weeks that followed, The Beatles devoted most of their time to sessions there for the new album, with some recording also done at Trident Studios. beatles bootlegs : 25 more alternate "white album"mixes: odeon mo 1968-2: 300,000 beatle fans can't be wrong: living legend llrcd 031: 69 rehearsals vol. April 2007, 13:09 for CD The Beatles / Revolver Used drive : HL-DT-STDVDRAM GSA-H10N Adapter: 0 ID: 0 Read mode : Secure with NO C2, accurate stream, disable cache Read offset correction : 667 Overread into Lead-In and Lead-Out : No Used output format : C:\Program Files\FLAC\flac. 55k Followers, 0 Following, 776 Posts - See Instagram photos and videos from KenFM (@kenfm. Category Archives: FLAC. Bootlegs: Performer First: Performer Last: Title: Date: Venue: City: State / Country: Tracker: Track # Torrent Date: Pkg: Type: Standard: Date @ Beatles: Alternate. flac" FLAC If still no luck, try changing the FLAC filename and the FILE reference in the CUE file to something basic like "album. THE BEATLES VOL. 81 MB Beatles, The - 1962-1966 (US Stereo Ebbetts)/CD1/Beatles, The - 1962-1966 CD 1 of 2 (US Stereo Ebbetts) - 02. The Beatles 'Magical Mystical Boy' (2CD) The Alternate Magical Mystery Tour (2001 Silent Sea : SS067-68) Studio Soundboard Recordings Excellent Sound Quality. 4 - Revolver / Let It Be Label: Parlophone. The final session for the album took. org - 'a non-profit corporation dedicated to protecting the foundations of. 2 kHz (Tracks) Artist: Queen Title: Queen Released: 1973/2011 Style: Rock RAR Size: 1. On 7 March 1962 the Beatles entered a BBC studio for their first session. 05 Grant Green - A Day In The Life. Link to your collections, sales and even external links. 0, is on every release except The Beatles Rock Band video game. The Beatles (Toshiba-EMI CP25-5329-30), The Beatles In Mono Box Set (TOCP-71041-53), все видео рипы в The Beatles Stereo Box Set (папки extra); gerrV: Live At The BBC (EU, Apple 3749153), The U. Hallelujah, I Love Her So - The Beatles. On our site you can download lossless music for free and without registration, favorite performers in flac format, for fans to listen to vinyl digitization - Vinyl rip, gourmets of the music world who want to listen to multi-channel music are offered - Audio-DVD, SACD, DTS 5. We provide fast downloadable and reliable service for you. Index Of Flac. Parent Directory. THE BEATLES recorded an enormous amount of songs over the years, and John Lennon went on to record even more after the band had split up - but one of his "favourite" songs was cut from his iconic Rock 'n' Roll album in 1975. FLAC stands for Free Lossless Audio Codec a lossless audio format that supports both CD Quality and HiRes music whether it is for downloads, streaming or internet radio. I don't want to convert them to mp3 cause the quality goes abit ****ter, does anyone know if it's possible to burn them on cd and put it through iTunes like any. Детали релиза : The Beatles (1963-1979) [Vinyl] [FLAC (image +. The Beatles - The Singles Collection [24-bit Hi-Res] (1982/2019) FLAC. Very Bad 8. 24, the band’s music will finally be available on streaming services worldwide. I started removing specific directories, but was not able to find the culprit. All CDs are in FLAC and MP3 format. The Beatles -09- Everybody's Got Something To Hide Except Me And My Monkey. Index of flac pink floyd Index of flac pink floyd. pro - the best lossless rap music store where you can download free and premium lossless rap albums. Tour information, photos, news, fan club and store. Used with kind permission. FLAC Pink Floyd - The Dark Side Of The Moon - Immersion Box Set - 5. Beatles Mono Flac. There is only one Stereo mix, but there are three Variations. Category Archives: FLAC. We have 251 FLAC-Beatles Music torrents for you! FLAC Beatles Torrent Results. Download The Beatles Flac free from uploadedtrend. org - 'a non-profit corporation dedicated to protecting the foundations of. The Beatles. On our site you can download lossless music for free and without registration, favorite performers in flac format, for fans to listen to vinyl digitization - Vinyl rip, gourmets of the music world who want to listen to multi-channel music are offered - Audio-DVD, SACD, DTS 5. If the mode is set to one of the Rename or Copy options, then the files will be moved or copied to the new destination, while preserving the existing file and folder structure. Welcome, pardner. Parent Directory. Index Of Flac. Here is the link to both the Beatles in 24 Bit FLAC and mono for all of you who havent experienced them in this format. 201/Music/Flac/Muzic FLAC/Rolling. Descarga acá Mercedes Sosa – The Best of. Albums: Second Album; The Beatles - The Beatles Bootleg Recordings 1963 (2013) Elton John: Greatest Hits (1970-2002). wav" WAVE INDEX 01 00:00:00 TRACK 04 AUDIO TITLE "I Want To Hold Your Hand" PERFORMER "The Beatles" INDEX 00 02:20:38 FILE "04 I Want To Hold Your Hand. However, the band's international discography is complicated, due to different versions of their albums sometimes being released in other countries, particularly during their early years on Capitol Records in North America. Its the stereo Remaster. Depeche Mode - Remixes for the Masses [24bit Hi-Res] (2020) FLAC. Name Last modified Size Description. Edit the album Report an error. A FLAC(Free Lossless Audio Codec) stream generally consists of 3 parts: a "fLaC" header to mark the stream as an FLAC stream, followed by one or more metadata blocks which stores metadata and information regarding the stream, followed by one or more audio frames. Label: Apple Records Catalog #: AP-8678 Country of origin: Japan Released: 1969. Artist: The Beatles. Producer Chris Thomas and engineer Ken Scott have been speaking about the double LP, which has the formal eponymous title of The Beatles. The Beatles - A Taste Of Honey. audio/flac. (Progressive Rock Remaster Project :: PRRP-055) Recorded Live at Punch And Judy Theatre, Grosse Pointe, MI, USA - July 18 and 19, 1978. Download File flac xyz The Beatles With The Beatles (0094638242017) REISSUE REMASTERED FLAC 2018 WRE rar. With that said, let's continue on! The Beatles' fourth album, Beatles for Sale, was released in the UK on December 4th, 1964, and reached the top spot on December 19th. The Beatles Abbey Road Vinyl LP Record 1969 original. To enable you to sample on your Walkman, the same track is available in High-Resolution Audio and a widely used compressed audio format. Editing : Adobe Audition > Ozone 5 > Sample Manager > xACT 2. 26/FLAC + MP3/RAR). 14 New York Groove. 1 kHz / 16 Bit Source: CD Album Artist: The Beatles Album Name. “What’s the difference?” is online at Gaging. Another Beatles Christmas - 1964. 33 > Wave > TLH (sbe aligned) Flac 8 Taped by Keith Litzenberger The quality on this is pretty good, you folks will enjoy it. The Complete Lost Lennon Tapes 22 CD's packaged as 11 double CD sets Released on the WALRUS label between 1996 and 1998 Be aware that thi. 57 MB The Beatles - 1+/204 - Please Please Me (live). Newlife IVF is one of the leading IVF clinics in Greece providing the full range of fertility investigations and treatments, including a highly successful egg donation programme. I am still in the USA, visiting my colleague Kevin Vandecar in Goffstown, New Hampshire, returning to Europe on Tuesday. pro - the best lossless rap music store where you can download free and premium lossless rap albums. Flac bootlegs Madalas na pagkahilo, morning sickness o pagsusuka, biglaang pagbabago sa mood, pagbagsak o pagbigat ng timbang, paghahanap ng kakaibang kombinasyon… Media. FILE "Beatles, The - Revolver (1966). The group shattered many sales records and had more than fifty top hit singles. The Beatles' first variety special. 34 MB The Beatles - 1/116 - Eleanor Rigby. We have 251 FLAC-Beatles Music torrents for you! FLAC Beatles Torrent Results. and in stereo for the U. 1 KHz (CD On Calf Music you can download metal, rock and alternative music. 998322 index 01 14:06:65 track 05 audio title "let me put my love into you" performer "ac\dc" rem replaygain_track. 54 MB The Beatles - 1/113 - We Can Work It Out. flac download 15. to 781 MB 2018-11-07 130 35. The Continuing Story Of Bungalow Bill - The Beatles. Beatles New 24 bit FLAC Files Post by rtliner » Sat Dec 26, 2009 11:48 am I was working with the new FLAC files from the Beatles USB stick collection and came across some FLAC weirdness. Forums > Audio Mania >. wav" WAVE INDEX 01 00:00:00 TRACK 05 AUDIO TITLE "Can't Buy Me Love" PERFORMER "The Beatles" INDEX 00 02:25:46 FILE "05 Can't Buy. You can find plenty of flac there. Radiohead King of Limbs Mediafire - Download Radiohead King of Limbs Mediafire. As you know "normal" compact discs top out at 16 BIT. This is the category page for The Beatles' songs, worldwide. The Beatles - Stereo Box Set (2009) Joe Cocker - Greatest Hits [Vinyl rip 24 bit 96 khz] [2015. Lizard is a music studio album recording by KING CRIMSON (Eclectic Prog/Progressive Rock) released in on cd, lp / vinyl and/or cassette. The Beatles - 1967 - Sgt Pepper's Lonely Hearts Club Band (Purple Chick Deluxe Edition) [flac] » audio music lossless. 0, since it arrived after (well after) the Stereo mix. Lineage: CD>EAC>FLAC(level 8) Disc One 73:44 01 Tennessee 2:20 02 House Of The Rising Sun 3:02 03 Commonwealth Song 4:26 04 Get Off White Power 2:46 05 Winston, Richard, And John 3:19 06 Yakety Yak > Hi Ho Silver 3:07 07 For You Blue 2:11. 52 MB The Beatles - 1+/203 - Words of Love (Pop Go the Beatles). 54 MB The Beatles - 1/113 - We Can Work It Out. JEMS 2015 Transfer: First-generation reel copy (3-3/4 IPS) > Otari 5050 mkII azimuth-adjusted transfer > USBPre 2 > Audacity 2. Disc 2: Yellow Submarine Eleanor. The Beatles were an English rock band formed in Liverpool in 1960. FLAC 16 bit / Pop / Rock / Discography 17-03-2018, 19:07 3 086 0 soundmaster All albums The Beatles Quality: FLAC 16 bit / 44. I assume it handles most all file formats for burning as easily? The FLAC Beatles is the best effing Beatles I have ever heard. The Beatles - The Beatles (White Album - Super Deluxe) (1968/2018) [24-96 FLAC,Hi-Res] 1337x. The Beatles - The Singles Collection [24-bit Hi-Res] (1982/2019) FLAC. Index of flac beatles Index of flac beatles. Renauld & The Smooth Jazz Quintet - Hey Jude [03:34]. Beatles Flac Beatles Flac. You can post now and register later. A | C | E | F | I | P | S | T | U | V. The Beatles (Toshiba-EMI CP25-5329-30), The Beatles In Mono Box Set (TOCP-71041-53), все видео рипы в The Beatles Stereo Box Set (папки extra); gerrV: Live At The BBC (EU, Apple 3749153), The U. Another Beatles Christmas - 1964. Bands The Beatles. The Beatles - Stereo Box Set (2009) [USB Limited Edition] [FLAC 24/44,1] Linn Records - The Super Audio Surround Collection Volume 2 (2006) {SACD ISO + FLAC 24/88,2} Green Day - American Idiot (2004/2012) [HDTracks FLAC 24/192]. 00b: June 9 2013 at 19:18: Beatles: 0. flac) Rip: tracks Quality: lossless Size: 291 Mb. wav" WAVE INDEX 01 00:00:00 TRACK 05 AUDIO TITLE "Can't Buy Me Love" PERFORMER "The Beatles" INDEX 00 02:25:46 FILE "05 Can't Buy. The Beatles - FLAC. I am still in the USA, visiting my colleague Kevin Vandecar in Goffstown, New Hampshire, returning to Europe on Tuesday. While the Beatles flew off to meet the Maharishi, Fay fell under the spell of a 19th century compendium of commentaries on the Biblical books of Daniel and Revelations, which would inspire his second album, Time of the Last Persecution. Albums: Second Album; The Beatles - The Beatles Bootleg Recordings 1963 (2013) Elton John: Greatest Hits (1970-2002). Top 10 Selling Albums: July 24th (2009) Added some extra scans to one of Paul's Fireman albums : See Strawberries Oceans Ships Forest: July 7th (2009). A collection of the top 38 The Beatles wallpapers and backgrounds available for download for free. 4 LP by BRS (Germany) - label, side 1. Download beatles flac » beatles flac could be available for fast direct download. A huge database of Beatles (and other artists) bootlegs (incl. Метки: bootleg, бутлег, lossless. Index Of Flac Beatles. The Beatles. Поделиться The Beatles — Girl (Rubber Soul 1965). The site is dedicated to lossless flac music. Both VLC Windows App and VLC Store App support FLAC formats and work flawlessly with them. Tour information, photos, news, fan club and store. Artist: Gordon Haskell Title: Collection Year Of Release: 1969-2020 Genre: Progressive rock Quality: FLAC (image+cue+log, tracks+cue+log, tracks) Total Time: 09:27:58 Total Size: 3. flac:9a00bebb3747ddc2d12dba52a9e0232d. Flac download The Beatles - Revolver (1993, 1966) (24bit Hi-Res) FLAC (image+. Category Archives: FLAC. to 793 MB 2019-09-25 111 15. I Need You. (Progressive Rock Remaster Project :: PRRP-055) Recorded Live at Punch And Judy Theatre, Grosse Pointe, MI, USA - July 18 and 19, 1978. Index of santana flac. Russell Malone - All About Melody (2016) [24bit FLAC] Search for: Free Movies Download. Английский (топики/темы): The Beatles. cda file copying doesn't provide audio stuff extracting. The Beatles - Stereo Box Set (2009) Joe Cocker - Greatest Hits [Vinyl rip 24 bit 96 khz] [2015. Please Please Me is the debut studio album by the English rock band the Beatles. 1 Surround Mix 96 kHz 24 Bit. Direct download via magnet link. Peso: 209 Mb Calidad: FLAC 1968 THE BEATLES. Chicane - Far From The Maddening Crowds 2007 [FLAC]-JDR: 0. Pepper's Lonely Hearts Club Band (Deluxe Edition) 2017; The Beatles - The U. Beatles tabs. Claim your free 50GB now. Last modified. Bon, on lit souvent, dans les bouquins sur les Beatles, qu'ils furent de vraies bêtes de scène, surtout à l'époque où ils n'étaient pas encore connus et où ils jouaient surtout des standards du rock'n'roll et du rythm. The second Mono mix, on The Beatles Rock Band video game, is designated 3. Note: This not the soundtrack version. 55k Followers, 0 Following, 776 Posts - See Instagram photos and videos from KenFM (@kenfm. Download samples of High-Resolution music files. Index Of Flac Pink Floyd. I stream through Squeezebox to my audio system. Tracklist & Download Links. 04 MB 07 Tony Williams - Blackbird. Two Dutch Beatles fans are demanding hundreds of thousands pounds in damages over the “unlawful” seizing of behind-the-scenes tapes of the band. com - Available in 96 kHz / 24-bit AIFF, FLAC high resolution audio formats, (Progressive Hard Rock Fusion) [CD] Queen – The Discography / Дискография (15 Studio, 11. 1, DVD, FLAC, APE | Archive of surround sound and lossless music for free The Who. Just beats the hell out of me. com! Check out our Gage Blog for all kinds of Metrology tips. Fab Production had done an good upgrade, but the Fab Collection are a few years from now and we The Beatles - Abbey Road - FLAC 96kHz/24bit Download. Another Girl. Index of /songs Name Last modified Size Description : Parent Directory - Ain't No Sunshine. Pepper's Lonely Hearts Club Band\04 - Getting Better. Us And Them 08. Tour information, photos, news, fan club and store. cue,log,scans) Bitrate: Lossless. Tutorial para descargar con Jdownloder. cue) Quality: Hi-Fi, lossless audio Sample Rate: 44. cue), (tracks +. The group, whose best-known line-up comprised John Lennon, Paul McCartney, George Harrison and Ringo Starr, are regarded as the most influential band of all time. “What’s the difference?” is online at Gaging. By admin flac-music 2020, R&B, Soul 0 Comments. formato: FLAC + CUE. 1 kHz (Tracks) Artist: Mike Oldfield Title: The Studio Albums 1992-2003 Released: 2014 Style: Prog Rock, Pop Rock, Electronic RAR Size: 2. 01 Carmina Burana 02 I Don’t Know 03 Crazy Train 04 Believer 05 Mr. Descarga acá Mercedes Sosa – The Best of. List to Beatles bootleg downloads (updated) Bootleg Network. 1 HQ Bluray source. To enable you to sample on your Walkman, the same track is available in High-Resolution Audio and a widely used compressed audio format. 16 100,000 Years. Beatles Mono Flac. UK: Dead Of Night. Both VLC Windows App and VLC Store App support FLAC formats and work flawlessly with them. Index of flac pink floyd Index of flac pink floyd. FILE "Beatles, The - Revolver (1966). Genre : R&B, Soul Release Date : 2020 Format : Flac (tracks) Quality : Lossless. I stream through Squeezebox to my audio system. AR Rahman Lossless FLAC songs [1411 Kbps] ripped from Audio CD. Yello - Point [Limited Collector's Box] (2020) FLAC. audio/flac. The Beatles (The Original Studio Recordings) – also known as The Beatles: Stereo Box – is a box set compilation comprising all remastered recordings by English rock band the Beatles. Meilleurs sites de téléchargement de MP3 / FLAC en Torrent. You've Got To Hide Your Love Away. flac:a1f71eb2d3bc3ee40bd03e7803caca04. Tracklist:. HDtracks has one of the biggest collections of lossless FLAC files for sale on the Web. INDEX 01 16:14:34 TRACK 16 AUDIO TITLE "I Will" INDEX 01 17:55:26 TRACK 17 AUDIO TITLE "Julia" INDEX 01 19:40:20 2 LP REM GENRE OldiesREM DATE 1968REM COMMENT TelsPERFORMER "The Beatles"TITLE "The Beatles: The White Album (Disc Two)"FILE "B_3. com is a completely virtual record label and a secure online store open 7 days a week, 365 days a year. Index of flac beatles Nizami Member Posts: 34 Enthusiast. of "Foo Fighters" - intitle:index. All CDs are in FLAC and MP3 format. the beatles cкачать бесплатно или слушать онлайн, как и The Beatles - Oh Darling, The Beatles - Parei na Contram o, The Beatles - Maxwell s Silver Hammer, The Beatles - Here Comes The Sun, The Beatles - Octopus s Garden. FLAC or Free Lossless Audio Codec is the most widely used lossless audio format. It contains "Free as a Bird", billed as the first new Beatles song in 25 years. MEGA provides free cloud storage with convenient and powerful always-on privacy. Even sounds beginning to fade away, reverberate, and finally trail off into the air are reproduced. Index of flac pink floyd Index of flac pink floyd. I have Beatles FLAC Discography. Download The Beatles - Rubber Soul (Mono)(2009 remaster)(EAC/FLAC/CUE) torrent or any other torrent from the Audio FLAC. 1 kHz / 16 Bit Source: CD Album Artist: The Beatles Album Name. ERIC CLAPTON JEFF BECK JIMMY PAGE LED ZEPPELIN THE WHO THE KINKS SMALL FACES PRETTY THINGS THE BEATLES THE ROLLING STONES FLEETWOOD THE ANIMALS. 4 LP by BRS (Germany) - label, side 1. The Beatles — Here Comes The Sun (Abbey Road 1969). 51 MB The Beatles - 1/105 - Can't Buy Me Love (live). The Beatles - Stereo Box Set (2009) Joe Cocker - Greatest Hits [Vinyl rip 24 bit 96 khz] [2015. Альбом (винил) THE BEATLES VOL. 01 Carmina Burana 02 I Don’t Know 03 Crazy Train 04 Believer 05 Mr. HDtracks is a high-resolution music platform for music lovers to download their favorite tracks in master studio quality. Try out sample tracks to experience High-Resolution Audio. The Beatles - Do You Want To Know A Secret. Поделиться The Beatles — Girl (Rubber Soul 1965). 1963 - With the Beatles. You can download The Beatles - Discography (1963-2015) for free on our site High Quality Save Audio in 1 Click Wide Choice of Songs and AlbumsContainer: FLAC (image +. Producer Chris Thomas and engineer Ken Scott have been speaking about the double LP, which has the formal eponymous title of The Beatles. But adding -48dB of dynamic range, especially when it is almost certainly below the noise floor of the recording itself, let alone the replay equipment. com - Available in 96 kHz / 24-bit AIFF, FLAC high resolution audio formats, (Progressive Hard Rock Fusion) [CD] Queen – The Discography / Дискография (15 Studio, 11. You can post now and register later. The set was issued on 9 September 2009, along with the remastered mono recordings and companion The Beatles in Mono and The Beatles: Rock Band video game. The Beatles - The Beatles (White Album - Super Deluxe) (1968/2018) [24-96 FLAC,Hi-Res] 1337x. Made in RU. This fixed the AC/DC problem above. 1) > Adobe Audition 3 (with iZotope Ozone 4 mastering plug-in) > CD Wave Editor (track splitting) > HAT (align sector boundries, FLAC) 01. ) and audio (AAC, AIFF, AMR, FLAC, MP3, etc. the beatles, rock, bootleg, compilation, flac A bootleg 'deluxe edition' of the Beatles' critically acclaimed (but a tad overrated) 1967 album Sgt. The Beatles 'Rehearsals At 3 Savile Row' (2CD) Series: TMOQ Gazette - Volume 4 (2012 His Master's Choice : HMC 016) Soundboard Recordings Encoded: FLAC File Format & [email protected] Kbps. Third Christmas Record - 1965. Artist: Eisbrecher Title Of Album: Schicksalsmelodien Year Of Release: 2020 Label (Catalog#): RCA Deutschland; Sony Music Entertainment [19439718502] Country: Germany Genre: Industrial Metal, Goth Electronics, Neue Deutsche Harte Quality: FLAC (*image +. Produced by George Martin, it was released on EMI's Parlophone label on 22 March 1963 in the United Kingdom, following the success of the band's singles "Please Please Me" and "Love Me Do", which reached number 1 on the NME and Melody Maker charts and number 17 on the UK Singles Chart, respectively. Formed around the nucleus of Lennon and McCartney, who first performed together in Liverpool in 1957, the group grew out of a shared enthusiasm for American rock. FLAC stands for Free Lossless Audio Codec a lossless audio format that supports both CD Quality and HiRes music whether it is for downloads, streaming or internet radio. The Beatles - Do You Want To Know A Secret. Join us today for the ultimate listening experience!. If you don't know, FLAC is a lossless file. Скачать Jazz and Beatles (2010) FLAC. Albums Box Set (USA, Capitol 602537614127) ;. Renauld & The Smooth Jazz Quintet - Hey Jude [03:34]. The Beatles - The Beatles 1962-1966 (The Red Album) - Remastered + [FLAC] The Beatles - The Beatles (White Album - Super Deluxe) + [FLAC] The Beatles-Sgt. FLAC is a free lossless compressed audio format which supports streaming and archival. Radiohead – A Moon Shaped Pool (2016) [. 10 Because Tony Osborne 2:33. 87 MB: 17. Used drive : PLEXTOR DVDR PX-891SA Adapter: 1 ID: 0. flac Moving files from the System drive to a Media Drive. Rubber Soul. The Beatles - A Taste Of Honey. A specially designed Flash interface has been installed, and the 16GB USB’s audio and visual contents will be provided in FLAC 44. Artist: Various Artists Title: King Jammys Dancehall, Vol. only to index the Torrents. flac" WAVE TRACK 03 AUDIO TITLE "You've Got To Hide Your Love Away" PERFORMER "The Beatles" INDEX 01 00:00:00 FILE "04. audio/flac. cda file copying doesn't provide audio stuff extracting. flac:10ef5e8ca649c54353a47506d4736966. Torrent Search Results of "flac beatles" - (total 358 torrents found). 50 MB 01 Stanley Turrentine - Can't Buy Me Love. Index's yex 749-2 yex 750-1%0a Sleeves show signs of age related discoloration Beatles "Help"1965 UK 1st press black & yellow labels,gramophone rims,. 4 GB 2018-11-10 150 48 The Beatles – The Beatles (White Album / Super Deluxe) [320 KBPS] [pradyutvam] 1337x. 9 Back In The U. This website is an external content index. Beatles Flac Beatles Flac. flac" WAVE TRACK 02 AUDIO TITLE Misery PERFORMER "The Beatles" INDEX 01 00:00:00 FILE "03 - Anna (Go To Him). MC19 crashed several times per day. 1 Khz 24 bit and MP3 320 Kbps formats, fully compatible with both PC and Mac. Joe Bonamassa - A New Day Now [20th Anniversary Edition] (2020) FLAC. Introducing the Beatles above spindle hole, The Beatles below the spindle hole. THE BEATLES recorded an enormous amount of songs over the years, and John Lennon went on to record even more after the band had split up - but one of his "favourite" songs was cut from his iconic Rock 'n' Roll album in 1975. If you haven't listened to The Beatles 2009 Green Apple USB in 24 BIT in Flac, you've never heard The Beatles. Quality: FLAC 24 bit / 48 kHz (Tracks) Artist: X Lovers Title: Mad World Released: 2020 Style: Pop RAR Size: 215 Mb. Another idea that is important to me is fixing the appalling "set the same volume level for all tracks", which doesn't take into account the subtle volume transients of an album that audio engineers. 1968 - The Beatles [White Album]. to je v Čechách a na Slovensku jedničkou pro svobodné sdílení souborů. The Beatles - The Beatles (1968) 320kbps / The White Album / Self-titled. (Progressive Rock Remaster Project :: PRRP-055) Recorded Live at Punch And Judy Theatre, Grosse Pointe, MI, USA - July 18 and 19, 1978. CUE REM GENRE RockREM DATE 2003REM DISCID 8C0D5E0CREM COMMENT "ExactAudioCopy v0. Start page 24 Bit FAQ Assistance About eClassical Classical News. Yello - Point [Limited Collector's Box] (2020) FLAC. Pepper`s Lonely Hearts Club Band. The Beatles - General. flac" WAVE TRACK 03 AUDIO TITLE "You've Got To Hide Your Love Away" PERFORMER "The Beatles" INDEX 01 00:00:00 FILE "04. Описание: Новые альбомы The Beatles не выходили The Beatles / Please Please Me. Download or listen to free music and audio This library contains recordings ranging from alternative news programming, to Grateful Dead concerts Download free music from moe. Another Beatles Christmas - 1964. Welcome, pardner. I am still in the USA, visiting my colleague Kevin Vandecar in Goffstown, New Hampshire, returning to Europe on Tuesday. Official site flacattack lossless-music - music in high quality lossless FLAC, APE, WAV only electronic genres like hardcore, gabber, hardstyle, drum and bass, dubstep, techno - easy to browse and download. 3: Hard Dancehall Murderer 1985-1989 Year Of Release: 2017 Label: Dub Store Records Genre: reggae, dancehall, dub, roots, ska Quality: 24-bit/44. As of today we have 85,791,558 eBooks for you to download for free. The final session for the album took. • 14 minutes ago by vitas in Music > Lossless. Beatles, The The Capitol Albums Vol. It was the beginning of a long relationship between the group and BBC radio and was of tremendous importance for their success. Beatles New 24 bit FLAC Files Post by rtliner » Sat Dec 26, 2009 11:48 am I was working with the new FLAC files from the Beatles USB stick collection and came across some FLAC weirdness. Label: Graf Zeppelin - LZSC-027. Beatles bootleg flac. Tracklist Hide Credits. You can post now and register later. 01 Carmina Burana 02 I Don’t Know 03 Crazy Train 04 Believer 05 Mr. AR Rahman Lossless FLAC songs [1411 Kbps] ripped from Audio CD. 52 MB The Beatles - 1+/203 - Words of Love (Pop Go the Beatles). Детали релиза : The Beatles (1963-1979) [Vinyl] [FLAC (image +. flac:fd92d86a62de0793862236cf0570f4d7. Once you have your program, you can click ‘open’ or ‘file’ > ‘open’. Pepper`s Lonely Hearts Club Band. 1 kHz (Tracks) Artist: The Beatles Title: The Beginnings Of The Beatles: From Hamburg To London 1961-1962 Released: 2013 Style: Pop Rock RAR Size: 593 Mb. flac" WAVE TRACK 04 AUDIO TITLE "I Need You" PERFORMER "The Beatles" INDEX 01 00:00:00 FILE "05. Here is the link to both the Beatles in 24 Bit FLAC and mono for all of you who havent experienced them in this format. Formed around the nucleus of Lennon and McCartney, who first performed together in Liverpool in 1957, the group grew out of a shared enthusiasm for American rock. The Beatles - Can't Buy Me Love flac download. Beatles - The Beatles 1967-1970 (1973) Japan SHM-CD UICY-76984/5 [2014] Tamanho (Size): 664 MB Formato (File): FLAC (from SHM) About SHM Download: Mega Disc 1 01. Beatles, The The Capitol Albums Vol. 4 GB 2018-11-10 150 48 The Beatles – The Beatles (White Album / Super Deluxe) [320 KBPS] [pradyutvam] 1337x. GENRE: Hard Rock FORMAT: Lossless (Flac) SIZE: 1,42 Gb (3% Recovery) Recorded Live at Long Beach Arena, Long Beach, CA. Index - Index. Following the September 9 (9-9-09) debut of The Beatles’ digitally re-mastered catalogue on CD, comes this exquisitely crafted, apple-shaped USB drive. Welcome, pardner. 60 MB The Beatles - 1/101 - Love Me Do. The Beatles - The Beatles (White Album - Super Deluxe) (1968/2018) [24-96 FLAC,Hi-Res] 1337x. Size FLAC ver: 1823 mb. 54 MB The Beatles - 1/113 - We Can Work It Out. A list of references to a creative work by The Beatles. Ungle Girls (Japan 1996) FLAC Ayudanos A crecer Puedes ayudarnos a seguir creciendo, donando en nuestro patreon. The Beatles (The Original Studio Recordings) – also known as The Beatles: Stereo Box – is a box set compilation comprising all remastered recordings by English rock band the Beatles. ЖАНР(Ы): Classic Rock ЛЕЙБЛ: Capitol Records, LLC ПРОДОЛЖИТЕЛЬНОСТЬ: 01:08:18 ФОРМАТ: FLAC КАЧЕСТВО: Lossless ЗАГРУЗИЛ (Lossless, 2014): СКАЧАТЬ ТОРРЕНТ БЕСПЛАТНО Скачать альбом The Beatles — The U. Beatles in flac. A specially designed Flash interface has been installed, and the 16GB USB’s audio and visual contents will be provided in FLAC 44. Download discography The Beatles on site losslessalbums. flac:a1f71eb2d3bc3ee40bd03e7803caca04. Claim your free 50GB now. Spectrogram. Class Index. Watch and download free files flac. The group announced the news in a 35-second video. Beatles In Mono Flac. Albums Box Set (USA, Capitol 602537614127) ;. Producer Chris Thomas and engineer Ken Scott have been speaking about the double LP, which has the formal eponymous title of The Beatles. 1963 - Please Please Me. to 793 MB 2019-09-25 111 15. Kredit umožní i stahování neomezenou. cue) Bitrate: lossless Covers: full (600 DPI) Amount of tracks: 26 Size ZIP: ~ 411 mb Upload. Index of flac beatles. The Beatles 1 Video Collection is Out Now. Artist: Mason Casey Title Of Album: Sofa King Badass Release Date: 2007 Location: USA Label: NorthernBlues Music NBM0042 (Canada) Genre: Rock,Modern Electric Blues/Harmonica Quality: FLAC (tracks+. Hi guys , I just downloaded every album from The Beatles in. Today we worked in his huge garden, loading a bunch of tree stumps on a truck with a tractor, then went for a swim in the beautiful Uncanoonuc Lake: Back in February I mentioned using Songbird to play music on the Mac, extracting M3U playlists from it, and determining the. Téléchargement mp3 gratuit Index. Download The Beatles Flac free from uploadedtrend. 52 MB The Beatles - 1+/203 - Words of Love (Pop Go the Beatles). Labels: The Beatles, The Beatles FLAC, The Beatles live, The Beatles outtakes FLAC - The Beatles "Bowled Over" - 2CD - live august 1965 the Minneapolis portion is an average/fair AUD,. Beatles Flac Beatles Flac. 42 The Oscar Peterson Trio - Like Someone In Love [Flac][TntVillage] 226. flac" WAVE TRACK 04 AUDIO TITLE "I Need You" PERFORMER "The Beatles" INDEX 01 00:00:00 FILE "05. 3: Hard Dancehall Murderer 1985-1989 Year Of Release: 2017 Label: Dub Store Records Genre: reggae, dancehall, dub, roots, ska Quality: 24-bit/44. 1 KHz (CD On Calf Music you can download metal, rock and alternative music. Results for title:beatles flac (torrent title search) Search instead for beatles flac (deep files search). The Beatles — I'll Follow The Sun (Beatles For Sale 1987). Index Of Mp3 Oldies. Exact Audio Copy V1. Год: 1963-2013 Жанр: Classic Rock. Слушать исполнителя. wav and add some tags at the same time to abc. Bootlegs des Beatles classés par ordre chronologique / Bootleg list in chronological order. FLAC, de la Discografia de The Beatles, el mismo que se realizo digitalmente en el año 2009 por Apple y EMI y cuenta con los 13 CDs de estudio de la banda y los Past Masters. 24, the band’s music will finally be available on streaming services worldwide. 0, is on every release except The Beatles Rock Band video game. If you're looking to buy lossless music in FLAC format, from indie to classical to jazz, here are our favorite sites. I don't want to convert them to mp3 cause the quality goes abit ****ter, does anyone know if it's possible to burn them on cd and put it through iTunes like any. Index Of Flac Hindi. 52 MB The Beatles - 1+/203 - Words of Love (Pop Go the Beatles). On 7 March 1962 the Beatles entered a BBC studio for their first session. 201/Music/Flac/Muzic FLAC/Rolling. Try out sample tracks to experience High-Resolution Audio. To categorize an article as belonging to this category, just insert, at the bottom of the page, [[Category:Beatles Albums]]. Borat 2 Subsequent Moviefilm 2020 1080p AMZN WEB-DL H264 DDP5. FLAC or Free Lossless Audio Codec is the most widely used lossless audio format. of + mp3 + -html -htm -php "directory listings" + intitle:shn + "beatles" - "directory listings" + inurl:mp3 + "magnetic fields". But it is index files that contain track time position. You can post now and register later. The Beatles. If you're new to these here parts, register and come on in. While the Beatles flew off to meet the Maharishi, Fay fell under the spell of a 19th century compendium of commentaries on the Biblical books of Daniel and Revelations, which would inspire his second album, Time of the Last Persecution. Bon, on lit souvent, dans les bouquins sur les Beatles, qu'ils furent de vraies bêtes de scène, surtout à l'époque où ils n'étaient pas encore connus et où ils jouaient surtout des standards du rock'n'roll et du rythm. Last modified. •Si te gusta la pagina y disfrutas de su contenido, apoyala para contar con ella por mucho tiempo•. You do not need to install any extra codecs for FLAC files. 96 MB 09 Kevin Hays - And I Love Her. At a Glance. just use Create Audio CD, drag 'n drop your Flac files to the left hand pane -- note for an Audio CD don't exceed 74 - 80 mins. The Beatles 'Magical Mystical Boy' (2CD) The Alternate Magical Mystery Tour (2001 Silent Sea : SS067-68) Studio Soundboard Recordings Excellent Sound Quality. 57 MB The Beatles - 1+/204 - Please Please Me (live). The Beatles - The Beatles (White Album - Super Deluxe) (1968/2018) [24-96 FLAC,Hi-Res] 1337x. [Lưu Trữ] [lossless]Beatles, The - Abbey Road (MFSL Ebbetts) Quán Nước Vỉa Hè. Top 10 Selling Albums: July 24th (2009) Added some extra scans to one of Paul's Fireman albums : See Strawberries Oceans Ships Forest: July 7th (2009). Albums Box Set (USA, Capitol 602537614127) ;. 0 (24/96) capture > IZotope RX + Ozone 5 > iZotope RX MBIT+ resample 16/44. 1 Released: 2020 Style: Pop RAR Size: 401 Mb. This intimate, riveting book invites us to travel back in time to January 1969, the beginning of The Beatles’ last year as a band. April 2007, 13:09 for CD The Beatles / Revolver Used drive : HL-DT-STDVDRAM GSA-H10N Adapter: 0 ID: 0 Read mode : Secure with NO C2, accurate stream, disable cache Read offset correction : 667 Overread into Lead-In and Lead-Out : No Used output format : C:\Program Files\FLAC\flac. 998322 index 01 14:06:65 track 05 audio title "let me put my love into you" performer "ac\dc" rem replaygain_track. But adding -48dB of dynamic range, especially when it is almost certainly below the noise floor of the recording itself, let alone the replay equipment. com you can download lossless music in popular formats FLAC, APE, ALAC, MP3, M4A. Watch and download free files flac. Stan Snelleman and Jos Remmerswaal, who are music traders, allege that more than 500 audio tapes of recording sessions in 1969 – which formed the basis of the film and album Let it Be – were. flac:9a00bebb3747ddc2d12dba52a9e0232d. It seems like the problem is flac specific. The price listed is the cost for 1 Bootleg Beatles ticket. The Beatles - Stereo Box Set (2009) [USB Limited Edition] [FLAC 24/44,1] Linn Records - The Super Audio Surround Collection Volume 2 (2006) {SACD ISO + FLAC 24/88,2} Green Day - American Idiot (2004/2012) [HDTracks FLAC 24/192]. Quality: FLAC | lossless (tracks) Length: 56:23 min Tracks: 15 Total Size: 359 MB (+5%) WebSite:---- Первый проект The Blues Meets The Beatles был создан американским блюзменом и продюсером Fred James в 2001 году и издан небольшим тиражом. I have converted them into itunes via XLD and it sounds amazing. flac" WAVE TRACK 03 AUDIO TITLE "You've Got To Hide Your Love Away" PERFORMER "The Beatles" INDEX 01 00:00:00 FILE "04. These really are eye opening. Index of pink floyd flac. The Beatles - Magical Mystery Tour (1967) (Japan TOCP-51124) [FLAC] (IMG) Cue Log & Scana – E9582697D6D393813BF1FCB889D5766F971A4BB5 – | Download torrents at Zooqle. FLAC is an independent law centre under the terms of the Solicitors Acts 1954-2002 (Independent Law Centres) Regulations 2006, SI 103/2006. FLAC (tracks) 24 bit/44,1 kHz | Time – 619:03 minutes | No Art | 7,32 GB 14 albums, 226 songs, over than 10 hours of Music | Source: Apple-shaped USB drive. Star Wars Trilogy - FLAC. I started removing specific directories, but was not able to find the culprit. FlacMusicFinder. Lizard is a music studio album recording by KING CRIMSON (Eclectic Prog/Progressive Rock) released in on cd, lp / vinyl and/or cassette. Every Mother's Nightmare - Resurrect The Faithful (2020) Hi-Res. Beatles - Tell Me What You See. com! Check out our Gage Blog for all kinds of Metrology tips. Rubber Soul. 1963 - With the Beatles. (c) EMI Music Germany. Free FLAC, WMA, APE, MP3 music download now. 60 MB The Beatles - 1/101 - Love Me Do. List to Beatles bootleg downloads (updated) Bootleg Network. A | C | E | F | I | P | S | T | U | V. Beatles Flac Downloads. Its the stereo Remaster. Artist: Mason Casey Title Of Album: Sofa King Badass Release Date: 2007 Location: USA Label: NorthernBlues Music NBM0042 (Canada) Genre: Rock,Modern Electric Blues/Harmonica Quality: FLAC (tracks+. 1 kHz (Tracks) Artist: Jazz for Babies Title: The Music of The Beatles, Vol. Beatles - The Beatles 1967-1970 (1973) Japan SHM-CD UICY-76984/5 [2014] Tamanho (Size): 664 MB Formato (File): FLAC (from SHM) About SHM Download: Mega Disc 1 01. Songs from The Beatles movie - Yellow Submarine 5. The Beatles. You can post now and register later. 16-bit FLAC Preview In Spite of All the Danger (With John Lowe & Colin Hanton, Liverpool, 1958) In Spite of All the Danger (With John Lowe & Colin Hanton, Liverpool, 1958) The Beatles 2019 From £0. Ok, simple thing: the FLAC and CUE are in the same folder, right? The FILE reference has to be exact, e. The Beatles - Can't Buy Me Love flac download. Le téléchargement de Torrent est autre une moyen très efficace pour télécharger du. Joy Division - Love Will Tear Us Apart 8D Audio. 4 GB 2018-11-10 150 48. “What’s the difference?” is online at Gaging. LP 1062 on Front VJLP 1062 on Labels and on Back Sleeve. net provides unlimited and fast file cloud storage that enables you to securely share and access files online. All our albums originally recorded in DXD are now available in a wide range of. Beatles - The Beatles 1967-1970 (1973) Japan SHM-CD UICY-76984/5 [2014] Tamanho (Size): 664 MB Formato (File): FLAC (from SHM) About SHM Download: Mega Disc 1 01. MC19 crashed several times per day. 1 kHz / 16 Bit Source: CD Album Artist: The Beatles Album Name: Discography Label, Catalog: Various Genre: Rock Release Date: 1963-2015 ArtWork: included (complete set) Original Masters. GENRE: Hard Rock FORMAT: Lossless (Flac) SIZE: 1,42 Gb (3% Recovery) Recorded Live at Long Beach Arena, Long Beach, CA. Pepper`s Lonely Hearts Club Band. The Beatles - The Beatles (White Album - Super Deluxe) (1968/2018) [24-96 FLAC,Hi-Res] 1337x.